<?xml version="1.0" standalone="no"?>
<!DOCTYPE svg PUBLIC "-//W3C//DTD SVG 1.1//EN" "http://www.w3.org/Graphics/SVG/1.1/DTD/svg11.dtd" >
<svg xmlns="http://www.w3.org/2000/svg">
<defs>
  <font id="ptc" horiz-adv-x="2888.888888888889">
    <font-face font-family="ptc"
      units-per-em="1000" ascent="1000"
      descent="0" />
    <missing-glyph horiz-adv-x="0" />
    <glyph glyph-name="arrow-carousel-control"
      unicode="&#xEA01;"
      horiz-adv-x="1000" d="M62.5 500C62.5 383.9673913043479 108.5936956521739 272.6869565217391 190.6408695652174 190.6413043478261C272.6869565217392 108.5934782608696 383.9673913043479 62.5 500 62.5C616.0326086956521 62.5 727.313043478261 108.5934782608696 809.3586956521739 190.6413043478261C891.4065217391304 272.6869565217391 937.5 383.9673913043479 937.5 500C937.5 616.0326086956521 891.4065217391304 727.3130434782609 809.3586956521739 809.3591304347826C727.313043478261 891.4063043478261 616.0326086956521 937.5 500 937.5C383.9673913043479 937.5 272.6869565217392 891.4063043478261 190.6408695652174 809.3591304347826C108.5936956521739 727.3130434782609 62.5 616.0326086956521 62.5 500zM1000 500C1000 367.391304347826 947.3217391304348 240.2152173913044 853.554347826087 146.445652173913C759.7847826086957 52.6782608695652 632.608695652174 0 500 0C367.3913043478261 0 240.2152173913044 52.6782608695652 146.4465217391305 146.445652173913C52.6784782608696 240.2152173913044 0 367.391304347826 0 500C0 632.608695652174 52.6784782608696 759.7847826086957 146.4465217391305 853.5534782608695C240.2152173913044 947.3215217391304 367.3913043478261 1000 500 1000C632.608695652174 1000 759.7847826086957 947.3215217391304 853.554347826087 853.5534782608695C947.3217391304348 759.7847826086957 1000 632.608695652174 1000 500zM718.75 531.25C727.0369565217392 531.25 734.9869565217391 527.9565217391305 740.8478260869565 522.0978260869565C746.7065217391305 516.2369565217391 750 508.2869565217391 750 500C750 491.7130434782609 746.7065217391305 483.7630434782609 740.8478260869565 477.9021739130435C734.9869565217391 472.0413043478261 727.0369565217392 468.75 718.75 468.75H356.6869565217391L490.8739130434783 334.6239130434783C493.7804347826087 331.7195652173913 496.0847826086957 328.2695652173914 497.6586956521739 324.4739130434782C499.2304347826087 320.6782608695652 500.0391304347826 316.6086956521739 500.0391304347826 312.5C500.0391304347826 308.3913043478261 499.2304347826087 304.3217391304348 497.6586956521739 300.5260869565217C496.0847826086957 296.7304347826087 493.7804347826087 293.2804347826087 490.8739130434783 290.3760869565218C487.9695652173913 287.4695652173913 484.5195652173913 285.1652173913044 480.7239130434783 283.5913043478261C476.9282608695652 282.0195652173914 472.8586956521739 281.2108695652173 468.75 281.2108695652173C464.6413043478261 281.2108695652173 460.5717391304348 282.0195652173914 456.7760869565218 283.5913043478261C452.9804347826087 285.1652173913044 449.5304347826087 287.4695652173913 446.6260869565217 290.3760869565218L259.1260869565218 477.8760869565217C256.2152173913044 480.7782608695652 253.9065217391305 484.2260869565217 252.3304347826087 488.0239130434783C250.754347826087 491.8195652173913 249.9434782608696 495.8891304347826 249.9434782608696 500C249.9434782608696 504.1108695652174 250.754347826087 508.1804347826087 252.3304347826087 511.9760869565217C253.9065217391305 515.7739130434783 256.2152173913044 519.2217391304348 259.1260869565218 522.1239130434783L446.6260869565217 709.6239130434783C452.4934782608696 715.4934782608696 460.4521739130435 718.7891304347826 468.75 718.7891304347826C477.0478260869565 718.7891304347826 485.0065217391305 715.4934782608696 490.8739130434783 709.6239130434783C496.7434782608696 703.7565217391304 500.0391304347826 695.7978260869565 500.0391304347826 687.5C500.0391304347826 679.2021739130435 496.7434782608696 671.2434782608696 490.8739130434783 665.3760869565217L356.6869565217391 531.25H718.75z" />
    <glyph glyph-name="arrow-infograph"
      unicode="&#xEA02;"
      horiz-adv-x="2888.888888888889" d="M2160.4333333333334 11.1111111111111C2200.4333333333334 96.4444444444445 2239.1000000000004 171.1111111111111 2276.4333333333334 235.1111111111111C2316.4333333333334 299.1111111111111 2355.1000000000004 352.4444444444444 2392.4333333333334 395.1111111111111H60.4376666666667V563.1111111111111H2392.4333333333334C2355.1000000000004 608.4444444444445 2316.4333333333334 663.1111111111111 2276.4333333333334 727.1111111111111C2239.1000000000004 791.1111111111111 2200.4333333333334 864.4444444444445 2160.4333333333334 947.1112222222222H2300.4333333333334C2468.4333333333334 752.4444444444445 2644.4333333333334 608.4444444444445 2828.4333333333334 515.1111111111111V443.1111111111112C2644.4333333333334 352.4444444444444 2468.4333333333334 208.4444444444445 2300.4333333333334 11.1111111111111H2160.4333333333334z" />
    <glyph glyph-name="arrow-white"
      unicode="&#xEA03;"
      horiz-adv-x="1227.2727272727273" d="M652.2590909090909 154.340909090909C745.1727272727272 248.6818181818183 838.3863636363636 343.4818181818182 931.45 438.1318181818182L927.9545454545454 445.0454545454546C913.8363636363636 445.9681818181819 899.7181818181818 447.6590909090909 885.6 447.809090909091C633.7409090909091 448.1181818181818 387.039090909091 458.1045454545455 135.1772727272727 458.2590909090909C112.405 458.2590909090909 112.405 459.1818181818182 112.405 459.1818181818182L45.4545454545455 459.4863636363636C45.4545454545455 459.4863636363636 45.6063636363636 532.4727272727273 45.6063636363636 572.1131818181818H929.6272727272726C930.8409090909092 574.4177272727272 932.209090909091 576.7222727272726 933.4227272727272 579.0272727272727C839.4499999999999 674.7504545454545 745.4727272727273 770.4740909090909 649.8318181818182 867.8872727272727C678.0681818181819 896.3122727272728 688.6954545454546 904.9168181818181 717.3909090909091 932.5736363636364L739.1 954.5454545454546C739.1 954.5454545454546 1036.6545454545453 659.3854545454545 1180.4272727272728 513.2636363636364C1187.9772727272727 505.5909090909091 1161.4454545454546 532.5181818181818 1180.7272727272727 512.65C1032.709090909091 363.7636363636364 884.990909090909 215.0318181818182 737.5818181818182 66.7636363636365C711.7727272727273 93.1909090909092 683.5318181818182 119.7681818181818 652.8636363636364 151.2681818181818L652.2590909090909 154.340909090909z" />
    <glyph glyph-name="blog-card-arrow"
      unicode="&#xEA04;"
      horiz-adv-x="1500" d="M1050 950L970.687 870.688L1284.56 556.25H0V443.75H1284.56L970.687 129.313L1050 50L1500 500L1050 950z" />
    <glyph glyph-name="burger-menu"
      unicode="&#xEA05;"
      horiz-adv-x="1375" d="M0 937.5L62.5 875L1437.5 875L1375 937.5zM0 500L62.5 437.5L1437.5 437.5L1375 500zM0 62.5L62.5 0L1437.5 0L1375 62.5z" />
    <glyph glyph-name="close-menu"
      unicode="&#xEA06;"
      horiz-adv-x="1000" d="M74.2694117647059 42.926705882353L154.7058823529412 42.926705882353L981.387687 925.2808526235294L900.9512164117646 925.2808526235294zM99.0417647058823 925.2796470588236L99.0417647058823 839.4262352941176L925.7235693529412 -42.9279114470589L925.7235693529412 42.925500317647z" />
    <glyph glyph-name="collapsed"
      unicode="&#xEA07;"
      horiz-adv-x="1000" d="M440.5015 830.8515C465.1015 806.3015 705.3499999999999 547.5515 705.3499999999999 547.5515C718.5 534.4010000000001 725 517.2015 725 500.0015C725 482.75 718.45 465.55 705.3499999999999 452.4499999999999C705.3499999999999 452.4499999999999 465.1015 193.6999999999999 440.5015 169.05C415.9515 144.5 371.8015 142.8000000000001 345.4515 169.05C319.2015 195.4000000000001 317.1515 232 345.4515 264.15L565.9 500.0015L345.5515000000001 735.751C317.2015 767.9515 319.3015 804.6514999999999 345.5515000000001 830.8515C371.8015 857.2015 416.0015 855.5515 440.5015 830.8515z" />
    <glyph glyph-name="dot"
      unicode="&#xEA08;"
      horiz-adv-x="1000" d="M-233.3333333333333 900A333.3333333333334 500 0 0 1 433.3333333333334 900A333.3333333333334 500 0 0 1 -233.3333333333333 900" />
    <glyph glyph-name="education"
      unicode="&#xEA09;"
      horiz-adv-x="1000" d="M494.3657230510815 394.0141663803545C478.24547887016 394.0141663803545 454.4728905732143 395.7979781153371 432.6645774552572 404.1687055565389L258.2015429624462 471.3774566453928H172.7382204222151V366.7017182202141C172.7382204222151 334.5167570719114 196.6843312614742 297.9798505623866 226.2005157089958 285.1495937837285L437.4537996231091 193.1965281609735C466.9699840706306 180.387094087393 514.8864989050728 180.3315668738526 544.4339174102108 193.0715919305078L757.9915806862471 285.295352719272C787.5181764863075 298.0353777759269 811.4712282272592 334.5167570719114 811.4712282272592 366.7017182202141V471.3774566453928H717.1617264798872L562.5635526311224 406.2023897524528C543.9654065459644 398.3452890364987 519.7208369339261 394.0141663803545 494.3657230510815 394.0141663803545zM22.4711692295946 608.0333996189445L443.1661617160686 445.9321110405454C473.2237364956081 434.3789801733144 521.6087621942967 435.1320680069548 551.277646479054 447.6395728569099L953.0448000499746 617.0010446057049V367.1320541251515L928.2276060483018 284.3062742280852H1000.0034704508464L974.3256046392988 367.9927259350264V627.1000565683488H973.6037508632746C990.945593742083 639.0696415371322 986.9025185061791 653.9856392743982 961.2246526946316 663.1684522136271L552.4818929227096 808.6185176316255C522.1501525263146 819.4359129194473 473.1508570278365 818.9778134077397 443.0065209771402 807.6572027472089L22.6585735752932 649.5191690352494C-7.4857624754032 638.1777356696409 -7.5586419431748 619.5969418387142 22.4711692295946 608.0333996189445z" />
    <glyph glyph-name="externallink"
      unicode="&#xEA0A;"
      horiz-adv-x="1000" d="M191.476875 610.641875L74.7575 493.9225C26.891125 446.0562500000001 0 381.135 0 313.44375C0 245.75 26.891125 180.8250000000001 74.7575 132.9625C122.624375 85.09375 187.545625 58.2000000000001 255.23875 58.2000000000001C322.9325 58.2000000000001 387.85375 85.09375 435.72 132.9625L591.2325000000001 288.55625C620.096875 317.425 641.6125000000001 352.8 653.9812499999999 391.70375C666.34375 430.61 669.2 471.9143749999999 662.3 512.150625C655.4 552.3868749999999 638.94375 590.380625 614.3237499999999 622.943125C589.70125 655.505625 557.6268749999999 681.68625 520.7925 699.2875L470.94 649.435C465.8775 644.36625 461.475625 638.6781249999999 457.83875 632.505625C486.298125 624.3243749999999 512.129375 608.856875 532.77875 587.633125C553.428125 566.4100000000001 568.18125 540.164375 575.579375 511.491875C582.976875 482.8187499999999 582.764375 452.711875 574.960625 424.146875C567.1575 395.581875 552.034375 369.5500000000001 531.08625 348.61875L375.65875 193.1062500000001C343.733125 161.1812500000001 300.431875 143.24375 255.2812500000001 143.24375C210.13125 143.24375 166.83 161.1812500000001 134.90375 193.1062500000001C102.978125 225.03125 85.041875 268.3312500000001 85.041875 313.4812500000001C85.041875 358.6312499999999 102.978125 401.9350000000001 134.90375 433.86125L202.36625 501.23875C192.82125 536.9025 189.14375 573.796875 191.476875 610.641875zM350.648125 769.73C321.783125 740.86125 300.265 705.489375 287.899375 666.58375C275.53375 627.6775 272.68125 586.3731250000001 279.581875 546.136875C286.4825 505.900625 302.934375 467.906875 327.5568750000001 435.344375C352.179375 402.7825000000001 384.2537500000001 376.601875 421.088125 359L487.019375 425.01625C458.175 432.753125 431.875625 447.9456250000001 410.763125 469.066875C389.650625 490.188125 374.469375 516.49375 366.745 545.34125C359.02 574.188125 359.02375 604.5606250000001 366.75625 633.4056250000001C374.4881250000001 662.25125 389.67625 688.5531249999999 410.794375 709.66875L566.221875 865.18125C598.1475 897.1075 641.4499999999999 915.043125 686.6 915.043125C731.75 915.043125 775.0500000000001 897.1075 806.975 865.18125C838.9 833.255 856.8375 789.95375 856.8375 744.80375C856.8375 699.653125 838.9 656.3525 806.975 624.42625L739.5125 557.0487499999999C749.04375 521.318125 752.7 484.311875 750.40625 447.5606250000001L867.125 564.28C914.9875 612.14625 941.88125 677.0675 941.88125 744.76125C941.88125 812.454375 914.9875 877.375625 867.125 925.2425C819.25625 973.1088125 754.3375 1000 686.64375 1000C618.948125 1000 554.026875 973.1088125 506.160625 925.2425L350.648125 769.73z" />
    <glyph glyph-name="globe"
      unicode="&#xEA0B;"
      horiz-adv-x="31.133250311332503" d="M15.5892416720817 980.5417185554172C23.8353851037025 980.1006641760066 30.5250275663026 764.969904524699 30.5250275663026 500S23.8281155091404 19.4582814445828 15.5666251556663 19.4582814445828S0.6057995468426 234.6409298464094 0.6057995468426 500S7.2970574749008 980.1006641760066 15.5432009065217 980.5417185554172zM20.1933182280851 339.7156496471565H10.93750888506C11.7339333559757 168.8719385637194 13.7330718605561 59.516396845164 15.5666251556663 59.516396845164S19.4001246880859 169.0016604400166 20.1973568917307 339.7156496471565M28.3441491976694 339.7156496471565H21.4590354146215C20.9275472788583 220.1899128268991 19.8120683799389 123.3914487339145 18.3605726657041 68.5709838107099A13.745187851493 441.4954337899543 0 0 1 28.3441491976694 339.7156496471565M9.6758303621693 339.7156496471565H2.7891011136631A13.7484187824095 441.5992112909921 0 0 1 12.7742931110866 68.5969281859693C11.3203741986645 123.4173931091739 10.2073184979325 220.2158572021585 9.6758303621693 339.741594022416M9.5223611436358 619.9408468244085H2.3715032927063A13.7645734369919 442.118098796181 0 0 1 2.3715032927063 379.6699875466998H9.5223611436358A37.1807452542794 1194.2455375674554 0 0 0 9.5223611436358 619.9408468244085M20.3580957048263 619.9408468244085H10.7767700719645A35.6929015672341 1146.45599833956 0 0 1 10.7767700719645 379.6699875466998H20.3548647739098A35.7518660564601 1148.3499377334992 0 0 1 20.3548647739098 619.9408468244085M28.7601315531679 619.9408468244085H21.6116969004258A36.8713836190252 1184.3088418430884 0 0 0 21.6116969004258 379.6699875466998H28.7633624840844A13.7637657042628 442.0921544209216 0 0 1 28.7633624840844 619.9408468244085M12.770254447441 931.1436280614362A13.7484187824095 441.5992112909921 0 0 1 2.7891011136631 660.1286841012868H9.6758303621693C10.2073184979325 779.6544209215442 11.3227973968519 876.5047737650477 12.7742931110866 931.2733499377337M20.1973568917307 660.1286841012868C19.4001246880859 830.972395184724 17.4017939162346 940.3279369032794 15.5666251556663 940.3279369032794S11.7339333559757 830.8686176836861 10.93750888506 660.1286841012868zM18.3605726657041 931.3252386882524C19.8144915781262 876.5566625155666 20.9275472788583 779.7063096720631 21.4590354146215 660.1805728518057H28.3441491976694A13.745187851493 441.4954337899543 0 0 1 18.3605726657041 931.3252386882524" />
    <glyph glyph-name="info"
      unicode="&#xEA0C;"
      horiz-adv-x="1136.3636363636363" d="M637.790909090909 960.227909090909C630.7636363636364 972.3145 620.6272727272727 982.356409090909 608.4090909090909 989.339590909091C596.190909090909 996.32275 582.3227272727272 1000 568.2045454545455 1000C554.0818181818182 1000 540.2136363636364 996.32275 527.9954545454545 989.339590909091C515.7772727272727 982.356409090909 505.6409090909091 972.3145 498.6136363636364 960.227909090909L11.6955 142.4500000000001C-20.7561363636364 87.9181818181819 18.1574090909091 18.5954545454545 81.2854545454545 18.5954545454545H1055.05C1118.1772727272728 18.5954545454545 1157.1590909090908 87.9863636363637 1124.6363636363637 142.4500000000001L637.790909090909 960.227909090909zM568.0590909090909 719.5277272727272C606.05 719.5277272727272 635.8045454545454 687.1445454545456 631.9681818181817 649.7850000000001L607.1181818181818 403.9681818181819C606.2818181818182 394.3090909090909 601.8045454545454 385.3136363636364 594.5727272727273 378.759090909091C587.3409090909091 372.2045454545455 577.8772727272727 368.5681818181818 568.0590909090909 368.5681818181818C558.2409090909091 368.5681818181818 548.7818181818182 372.2045454545455 541.55 378.759090909091C534.3181818181819 385.3136363636364 529.840909090909 394.3090909090909 529.0045454545455 403.9681818181819L504.15 649.7850000000001C503.2590909090909 658.6004545454546 504.2454545454545 667.5022727272728 507.05 675.9181818181819C509.8545454545454 684.3336363636364 514.4181818181818 692.0759090909091 520.4363636363636 698.6459090909091C526.459090909091 705.2163636363637 533.8045454545454 710.4690909090909 542.0090909090909 714.0654545454545C550.2090909090908 717.6618181818183 559.0863636363636 719.5227272727273 568.0590909090909 719.5277272727272zM568.2045454545455 298.9681818181819C587.0363636363636 298.9681818181819 605.0954545454545 291.5818181818182 618.4136363636363 278.4363636363637C631.7318181818181 265.2954545454546 639.2136363636363 247.4636363636363 639.2136363636363 228.8727272727273C639.2136363636363 210.2863636363637 631.7318181818181 192.4545454545456 618.4136363636363 179.3136363636364C605.0954545454545 166.1681818181818 587.0363636363636 158.7818181818183 568.2045454545455 158.7818181818183C549.3681818181818 158.7818181818183 531.309090909091 166.1681818181818 517.9909090909091 179.3136363636364C504.6727272727273 192.4545454545456 497.1909090909091 210.2863636363637 497.1909090909091 228.8727272727273C497.1909090909091 247.4636363636363 504.6727272727273 265.2954545454546 517.9909090909091 278.4363636363637C531.309090909091 291.5818181818182 549.3681818181818 298.9681818181819 568.2045454545455 298.9681818181819z" />
    <glyph glyph-name="megaphone"
      unicode="&#xEA0D;"
      horiz-adv-x="1021.7391304347826" d="M232.3630434782609 319.4326086956521C163.6067391304348 319.4326086956521 99.2015217391304 364.1739130434783 80.0541304347826 433.004347826087L64.3880434782609 485.4869565217391C52.2032608695652 526.7869565217391 57.4254347826087 570.6652173913043 78.3134782608696 608.5239130434783C99.2015217391304 646.3804347826087 134.8854347826087 673.9130434782609 176.6617391304348 685.9586956521739L336.804347826087 731.5586956521739C498.6869565217391 802.1106521739131 633.5891304347826 872.6623913043478 767.6217391304348 992.2563043478262C778.0652173913043 1001.7205673913044 794.6021739130434 1000.8601804347826 804.1760869565218 990.5355217391304C813.75 980.2108695652174 812.8804347826086 963.8634782608696 802.4347826086956 954.399347826087C663.1804347826087 830.5034782608695 523.9260869565218 757.3695652173913 356.8217391304348 685.0978260869565H355.0804347826088H353.3413043478261L192.3278260869565 639.4978260869565C163.6067391304348 631.754347826087 140.1076086956522 612.8260869565217 125.3117391304348 587.0130434782609C110.5160869565217 561.2021739130435 107.0345652173913 531.0891304347826 115.7380434782609 502.695652173913L131.4041304347826 450.2130434782609C147.940652173913 394.2869565217391 207.1236956521739 361.5913043478261 262.8260869565218 377.9391304347827L425.5782608695652 423.5391304347826C439.504347826087 427.8413043478261 454.3 419.2391304347826 457.7804347826087 405.4717391304348C461.2630434782609 391.7065217391304 453.4304347826088 377.0782608695653 439.504347826087 373.6369565217391L276.75 328.0369565217392C261.954347826087 323.7347826086956 247.158695652174 322.0152173913043 233.2347826086957 322.0152173913043L232.3630434782609 319.4326086956521zM436.9021739130435 384.8239130434783C436.9021739130435 384.8239130434783 429.9391304347826 386.5434782608695 428.2 389.9847826086956C397.7369565217392 435.5847826086956 374.2369565217392 485.4891304347826 358.5717391304348 537.9717391304348C342.0347826086957 593.0369565217391 335.0717391304348 649.8217391304347 336.8130434782609 706.6086956521739C336.8130434782609 712.6304347826087 342.9065217391305 716.0717391304347 348.1282608695652 716.9326086956521C354.2195652173914 716.9326086956521 358.5717391304348 711.7695652173913 358.5717391304348 705.7478260869565C356.8304347826088 650.6826086956521 363.7934782608696 596.4782608695652 379.4608695652174 543.9956521739131C394.2565217391305 493.2326086956522 416.8847826086957 445.9108695652174 446.4760869565218 402.0304347826087C449.9565217391305 396.8673913043479 448.2173913043478 390.845652173913 443.8652173913044 387.4043478260869C442.1239130434783 386.5434782608695 439.5130434782609 385.6826086956521 437.7717391304348 385.6826086956521L436.9021739130435 384.8239130434783zM516.9782608695652 21.7391304347826C503.9239130434783 21.7391304347826 490.8673913043478 25.1804347826086 478.6826086956522 32.0630434782609L456.054347826087 46.691304347826C338.5586956521739 118.9630434782608 288.9500000000001 252.3239130434784 268.0608695652174 352.1282608695652C265.45 365.8934782608696 274.154347826087 379.6608695652174 288.0782608695652 383.1021739130435C302.004347826087 386.5434782608695 315.9304347826087 377.0804347826087 318.5413043478261 363.3130434782609C337.6891304347826 273.8326086956521 381.204347826087 153.3782608695651 483.0347826086957 91.4304347826087L505.6630434782609 76.804347826087C510.0152173913044 74.2239130434782 515.2369565217392 73.3630434782608 520.4586956521739 74.2239130434782C525.6804347826087 75.0826086956522 530.0326086956521 78.5239130434782 532.6434782608695 82.8260869565218L561.3652173913043 128.4282608695652C567.4586956521739 137.8913043478261 563.9760869565218 149.9369565217392 555.2739130434783 155.0999999999999L532.6434782608695 168.8652173913043C452.5739130434783 217.908695652174 421.2413043478261 315.1304347826087 409.0565217391305 388.2652173913043C407.3152173913044 396.0086956521739 409.9260869565218 403.7521739130435 415.1478260869566 408.9130434782609C419.5 414.9369565217392 426.4630434782609 419.2391304347826 434.2956521739131 420.0978260869565C448.2217391304349 421.8195652173913 710.1934782608696 448.4913043478262 867.7239130434783 441.6086956521739C815.5043478260869 521.6239130434783 777.208695652174 652.4043478260869 774.5978260869566 660.1478260869565C771.117391304348 673.0521739130435 685.8239130434782 970.746956521739 778.9499999999999 997.4189565217392C871.2065217391304 1023.230652173913 959.1108695652176 726.3978260869565 962.5913043478262 713.4913043478261C966.0739130434782 700.5847826086956 1049.6260869565217 408.0543478260869 958.2391304347826 380.5217391304348C958.2391304347826 380.5217391304348 957.3695652173914 380.5217391304348 956.5000000000002 380.5217391304348C945.1847826086956 377.9391304347827 933.8695652173913 379.6608695652174 922.5565217391306 384.8239130434783C825.9478260869565 399.4500000000001 584.8652173913043 382.2413043478262 466.4978260869565 371.0565217391304C478.6826086956522 318.5739130434783 504.7934782608696 246.3 561.3652173913043 211.8847826086956L583.9934782608697 198.1195652173914C617.9369565217391 177.4695652173913 628.3804347826087 133.5891304347825 607.4934782608696 100.0347826086955L578.7717391304348 54.4347826086956C568.3282608695653 38.0869565217391 552.6608695652174 26.9021739130434 534.3847826086957 22.6C529.1630434782609 21.7391304347826 523.0695652173913 20.8782608695652 517.8478260869566 20.8782608695652L516.9782608695652 21.7391304347826zM939.963043478261 435.5847826086956C939.963043478261 435.5847826086956 941.7043478260867 435.5847826086956 942.5739130434785 435.5847826086956C953.0173913043478 462.2586956521739 952.1478260869566 562.9239130434783 912.1108695652174 700.5847826086956C871.2065217391304 841.6886956521739 817.2456521739131 930.308695652174 793.7456521739132 946.6560869565218C783.3021739130435 920.844347826087 784.1717391304348 817.5978260869565 825.0782608695653 676.4934782608696C864.2434782608697 540.5521739130435 916.4630434782608 455.3739130434782 939.963043478261 436.445652173913V435.5847826086956zM97.4686956521739 394.2869565217391C85.2841304347826 394.2869565217391 73.9695652173913 397.7282608695653 62.6552173913044 402.8913043478261C44.3780434782609 413.2152173913044 30.4526086956522 430.4239130434783 24.3602173913044 451.0739130434782C18.2679347826087 471.7217391304348 20.8789347826087 494.0913043478261 31.3230434782609 512.1608695652174C40.8967391304348 528.5086956521739 55.6923913043478 540.5521739130435 73.099347826087 545.7152173913043L85.2841304347826 504.4173913043478C76.5806521739131 501.8347826086956 72.2289130434783 495.8130434782609 69.6178260869565 491.5108695652174C65.2663043478261 482.9065217391304 64.3958695652174 472.5826086956522 67.0069565217391 463.1173913043478C69.6178260869565 452.7934782608695 76.5806521739131 445.05 84.4136956521739 440.7478260869565C88.7654347826087 438.1673913043478 96.5984782608696 435.5869565217392 104.4315217391304 438.1673913043478L116.6163043478261 396.8673913043479C110.5239130434783 395.1478260869565 104.4315217391304 394.2869565217391 97.4686956521739 394.2869565217391zM831.1652173913044 580.1304347826087L812.0173913043479 618.8478260869565C865.9782608695652 645.5195652173913 889.4782608695651 676.4934782608696 885.1260869565218 692.841304347826C880.7739130434783 709.1891304347826 843.35 722.954347826087 783.295652173913 716.9326086956521L778.9434782608696 759.9521739130435C858.145652173913 767.695652173913 914.7173913043478 746.1869565217391 926.0326086956522 704.8869565217392C938.2152173913043 662.7282608695652 901.6630434782608 615.4065217391305 830.2934782608696 580.9913043478261L831.1652173913044 580.1304347826087zM221.0652173913044 525.0652173913043C215.8428260869565 525.0652173913043 211.4910869565218 528.5065217391304 210.6206521739131 532.8086956521739C208.88 538.8326086956522 212.3613043478261 543.9934782608696 218.454347826087 545.7152173913043L312.45 569.8065217391304C318.5434782608696 571.5260869565217 323.7652173913044 568.0847826086956 325.5065217391305 562.0630434782609C327.2456521739131 556.0391304347826 323.7652173913044 550.8782608695651 317.6717391304348 549.1565217391303L223.6760869565218 525.0652173913043C223.6760869565218 525.0652173913043 221.9347826086957 525.0652173913043 221.0652173913044 525.0652173913043zM214.1021739130435 568.0847826086956C208.88 568.0847826086956 204.5282608695652 571.5260869565217 203.6580434782609 575.8282608695652C201.9173913043478 581.8521739130435 205.3986956521739 587.0130434782609 211.4910869565218 588.7347826086957L305.4869565217392 612.8260869565217C311.5804347826088 614.5456521739131 317.6717391304348 611.104347826087 318.5434782608696 605.0826086956522C320.2826086956522 599.0586956521738 316.8021739130435 593.8978260869565 310.7086956521739 592.1760869565218L216.7130434782609 568.0847826086956C216.7130434782609 568.0847826086956 214.9723913043479 568.0847826086956 214.1021739130435 568.0847826086956zM214.1021739130435 611.9652173913043C208.88 611.9652173913043 204.5282608695652 615.4065217391305 203.6580434782609 619.7086956521739C201.9173913043478 625.7304347826087 205.3986956521739 630.8934782608696 211.4910869565218 632.6152173913043L305.4869565217392 656.7043478260869C311.5804347826088 658.4260869565217 317.6717391304348 654.9847826086957 318.5434782608696 648.9608695652173C320.2826086956522 642.9391304347826 316.8021739130435 637.7760869565218 310.7086956521739 636.0565217391304L216.7130434782609 611.9652173913043C216.7130434782609 611.9652173913043 214.9723913043479 611.9652173913043 214.1021739130435 611.9652173913043z" />
    <glyph glyph-name="portal"
      unicode="&#xEA0E;"
      horiz-adv-x="1000" d="M983.2155156056342 544.7821751399886L831.6606042010666 696.3370865445561V871.4084433122459C831.6606042010666 903.0637992079096 806.0085022547527 928.7179197332246 774.3067190420632 928.7179197332246C742.6776046734142 928.7179197332246 717.0255027271003 903.0637992079096 717.0255027271003 871.4084433122459V810.9701694395214L604.1808808271329 923.818828497491C548.3893758150012 979.5800548246056 451.3865619158736 979.4811444535504 395.722227380813 923.7178995474346L16.7784286573624 544.7821751399886C-5.59146383312 522.3678739114814 -5.59146383312 486.1000649982439 16.7784286573624 463.7200796127559C39.1584140428504 441.311834121252 75.4968732211273 441.311834121252 97.8687842906108 463.7200796127559L476.7762485920411 842.6658969152076C489.1198591839288 854.9449129790593 510.8761036580688 854.9449129790593 523.1551197219205 842.7022313372279L902.127178551387 463.7200796127559C913.3646078506574 452.5149475775033 928.0154542408326 446.9416509553935 942.6622634730054 446.9416509553935C957.3393513901952 446.9416509553935 972.014420728384 452.5210033145067 983.2175341846352 463.7200796127559C1005.5955009911222 486.0980464192428 1005.5955009911222 522.3658553324801 983.2155156056342 544.7821751399886zM519.9072261091081 733.8786188075043C508.8978962369649 744.8818929426441 491.071825078018 744.8818929426441 480.0947924698928 733.8786188075043L146.7749163299004 400.657653038567C141.512480873964 395.3972361616318 138.5290211102992 388.2151320756241 138.5290211102992 380.720148244442V137.6812179298261C138.5290211102992 80.6503054110028 184.770628868102 34.4107162322013 241.7995228079241 34.4107162322013H406.8264304660092V289.9830035648106H593.1392536909717V34.4107162322013H758.1681799280578C815.1950552888787 34.4107162322013 861.4366630466816 80.6503054110031 861.4366630466816 137.679199350825V380.720148244442C861.4366630466816 388.2151320756241 858.4794448100314 395.3972361616318 853.1907678270804 400.657653038567L519.9072261091081 733.8786188075043z" />
    <glyph glyph-name="pricing-accordion-chevron"
      unicode="&#xEA0F;"
      horiz-adv-x="1000" d="M102.875 709.625A31.25 31.25 0 0 0 147.125 709.625L500 356.6875L852.875 709.625A31.25 31.25 0 0 0 897.1250000000001 665.375L522.1250000000001 290.375A31.25 31.25 0 0 0 477.8750000000001 290.375L102.8750000000001 665.375A31.25 31.25 0 0 0 102.8750000000001 709.625z" />
    <glyph glyph-name="quotes"
      unicode="&#xEA10;"
      horiz-adv-x="1111.111111111111" d="M1000 22.2222222222222C1029.4722222222222 22.2222222222222 1057.7333333333333 33.6666666666667 1078.5666666666668 54.0444444444444C1099.4055555555556 74.4166666666667 1111.111111111111 102.05 1111.111111111111 130.8666666666667V396.1666666666667C1111.111111111111 424.9833333333333 1099.4055555555556 452.6149999999999 1078.5666666666668 472.9894444444444C1057.7333333333333 493.3638888888888 1029.4722222222222 504.8099999999999 1000 504.8099999999999H845.7833333333333C845.7833333333333 542.9794444444444 848.0777777777778 581.1488888888889 852.6722222222223 619.3183333333334C859.5611111111111 659.7333333333333 871.0388888888889 695.6577777777777 887.1166666666667 727.0911111111111C903.188888888889 758.525 923.8944444444444 783.2594444444444 949.2277777777778 801.2938888888889C974.4111111111112 821.5011111111111 1006.5555555555557 831.605 1045.6666666666667 831.605V1000C981.3722222222221 1000 925.0777777777778 986.528388888889 876.7833333333333 959.5851666666666C828.8222222222222 932.9816666666666 787.6166666666667 896.1433333333333 756.2277777777778 851.8122222222222C724.6277777777779 803.0161111111111 701.3611111111111 749.5166666666667 687.3388888888888 693.4122222222222C673.161111111111 631.5144444444445 666.2277777777779 568.24 666.6722222222222 504.8099999999999V130.8666666666667C666.6722222222222 102.05 678.3833333333333 74.4166666666667 699.2166666666667 54.0444444444444C720.0555555555555 33.6666666666667 748.3166666666667 22.2222222222222 777.7833333333333 22.2222222222222H1000zM333.3477777777778 22.2222222222222C362.8155555555556 22.2222222222222 391.0766666666667 33.6666666666667 411.9133333333334 54.0444444444444C432.7505555555556 74.4166666666667 444.4566666666667 102.05 444.4566666666667 130.8666666666667V396.1666666666667C444.4566666666667 424.9833333333333 432.7505555555556 452.6149999999999 411.9133333333334 472.9894444444444C391.0766666666667 493.3638888888888 362.8155555555556 504.8099999999999 333.3477777777778 504.8099999999999H179.1283333333333C179.1283333333333 542.9794444444444 181.4244444444445 581.1488888888889 186.0166666666667 619.3183333333334C192.9794444444445 659.7333333333333 204.4611111111111 695.6577777777777 220.4605555555556 727.0911111111111C236.5344444444445 758.525 257.2377777777778 783.2594444444444 282.5705555555556 801.2938888888889C307.7555555555556 821.5011111111111 339.9027777777778 831.605 379.0133333333333 831.605V1000C314.7183333333334 1000 258.4227777777778 986.528388888889 210.1277777777778 959.5851666666666C162.1666666666667 932.9816666666666 120.9594444444445 896.1433333333333 89.5744444444445 851.8122222222222C57.9761111111111 803.0161111111111 34.7093333333333 749.5166666666667 20.6865555555556 693.4122222222222C6.5072222222222 631.5144444444445 -0.4261322222222 568.24 0.0202546111111 504.8099999999999V130.8666666666667C0.0202546111111 102.05 11.7263333333333 74.4166666666667 32.5633333333333 54.0444444444444C53.4003333333333 33.6666666666667 81.6611111111111 22.2222222222222 111.1294444444445 22.2222222222222H333.3477777777778z" />
    <glyph glyph-name="search"
      unicode="&#xEA11;"
      horiz-adv-x="923.0769230769231" d="M618.0238461538461 404.0676923076924H659.7176923076923L923.076923076923 140.1769230769231L844.4384615384615 61.5384615384617L580.5515384615385 324.9015384615385V366.5953846153846L566.3015384615384 381.373076923077C506.1353846153846 329.6515384615385 428.0246153846154 298.513076923077 343.0530769230769 298.513076923077C153.5823076923077 298.513076923077 0 452.0953846153847 0 641.5661538461538C0 831.0369230769231 153.5823076923077 984.6191538461538 343.0530769230769 984.6191538461538C532.5238461538462 984.6191538461538 686.1061538461538 831.0369230769231 686.1061538461538 641.5661538461538C686.1061538461538 556.5946153846154 654.9676923076923 478.4838461538462 603.2461538461538 418.3176923076924L618.0238461538461 404.0676923076924zM105.6069230769231 641.5653846153846C105.6069230769231 510.1492307692308 211.69 404.0669230769231 343.1053846153846 404.0669230769231C474.5215384615385 404.0669230769231 580.6038461538461 510.1492307692308 580.6038461538461 641.5653846153846C580.6038461538461 772.9807692307693 474.5215384615385 879.0638461538462 343.1053846153846 879.0638461538462C211.69 879.0638461538462 105.6069230769231 772.9807692307693 105.6069230769231 641.5653846153846z" />
    <glyph glyph-name="sign-in-arrow"
      unicode="&#xEA12;"
      horiz-adv-x="1000" d="M593.75 890.625A46.875 46.875 0 0 0 640.625 937.5H796.875A140.625 140.625 0 0 0 937.5 796.875V203.125A140.625 140.625 0 0 0 796.875 62.5H640.625A46.875 46.875 0 0 0 640.625 156.25H796.875A46.875 46.875 0 0 1 843.75 203.125V796.875A46.875 46.875 0 0 1 796.875 843.75H640.625A46.875 46.875 0 0 0 593.75 890.625zM373.125 767.5A46.875 46.875 0 0 0 439.375 767.5L658.125 548.75A46.875 46.875 0 0 0 658.125 482.5L439.375 263.75A46.875 46.875 0 0 0 373.125 330L511.875 468.75H125A46.875 46.875 0 0 0 125 562.5H511.875L373.125 701.25A46.875 46.875 0 0 0 373.125 767.5z" />
    <glyph glyph-name="timer"
      unicode="&#xEA13;"
      horiz-adv-x="1027.7777777777778" d="M513.4722222222222 944.4444444444443C268.0947222222223 944.4444444444443 69.4444444444444 745.3050000000001 69.4444444444444 500H125C125 714.6944444444443 298.85 888.8888888888889 513.4722222222222 888.8888888888889V944.4444444444443zM69.4444444444444 500C69.4444444444444 254.6944444444445 268.0947222222223 55.5555555555555 513.4722222222222 55.5555555555555V111.1111111111111C298.85 111.1111111111111 125 285.3055555555556 125 500H69.4444444444444zM513.4722222222222 55.5555555555555C759.2111111111112 55.5555555555555 958.3333333333334 254.6416666666667 958.3333333333334 500H902.7777777777778C902.7777777777778 285.3583333333334 728.5666666666667 111.1111111111111 513.4722222222222 111.1111111111111V55.5555555555555zM958.3333333333334 500C958.3333333333334 745.3594444444444 759.2111111111112 944.4444444444443 513.4722222222222 944.4444444444443V888.8888888888889C728.5666666666667 888.8888888888889 902.7777777777778 714.6416666666667 902.7777777777778 500H958.3333333333334zM537.0833333333334 708.3333333333333H474.5833333333334V458.3333333333334L693.3333333333334 327.0833333333333L724.5833333333334 378.3333333333334L537.0833333333334 489.5833333333333V708.3333333333333z" />
    <glyph glyph-name="webinar"
      unicode="&#xEA14;"
      horiz-adv-x="1138.888888888889" d="M334.9777777777778 532.7972222222222H226.5352777777778V425.8583333333334H334.9777777777778V532.7972222222222zM479.075 532.7972222222222H370.6333333333334V425.8583333333334H479.075V532.7972222222222zM623.6888888888889 532.7972222222222H515.2444444444444V425.8583333333334H623.6888888888889V532.7972222222222zM768.2722222222222 532.7972222222222H659.8305555555556V425.8583333333334H768.2722222222222V532.7972222222222zM912.3694444444446 532.7972222222222H803.9277777777778V425.8583333333334H912.3694444444446V532.7972222222222zM334.9777777777778 390.2111111111111H226.5352777777778V283.2722222222223H334.9777777777778V390.2111111111111zM479.075 390.2111111111111H370.6333333333334V283.2722222222223H479.075V390.2111111111111zM623.6888888888889 390.2111111111111H515.2444444444444V283.2722222222223H623.6888888888889V390.2111111111111zM768.2722222222222 390.2111111111111H659.8305555555556V283.2722222222223H768.2722222222222V390.2111111111111zM912.3694444444446 390.2111111111111H803.9277777777778V283.2722222222223H912.3694444444446V390.2111111111111zM334.9777777777778 248.0999999999999H226.5352777777778V141.1611111111112H334.9777777777778V248.0999999999999zM479.075 248.0999999999999H370.6333333333334V141.1611111111112H479.075V248.0999999999999zM623.6888888888889 248.0999999999999H515.2444444444444V141.1611111111112H623.6888888888889V248.0999999999999zM768.2722222222222 248.0999999999999H659.8305555555556V141.1611111111112H768.2722222222222V248.0999999999999zM968.2722222222222 901.1408333333334V798.0038888888889C968.2722222222222 769.9622222222222 945.138888888889 747.6236111111111 916.7027777777778 747.6236111111111C888.2666666666667 747.6236111111111 865.1305555555556 769.9622222222222 865.1305555555556 798.0038888888889V901.1408333333334H273.7575000000001V798.0038888888889C273.7575000000001 769.9622222222222 250.6230555555556 747.6236111111111 222.1869444444445 747.6236111111111C193.7508333333333 747.6236111111111 170.6163888888889 769.9622222222222 170.6163888888889 798.0038888888889V901.1408333333334H42.4130555555556C18.7967222222222 901.1408333333334 0 882.6047222222222 0 859.3158333333333V41.8249999999999C0 18.536111111111 18.7967222222222 0 42.4130555555556 0H1096.4750000000001C1120.0916666666667 0 1138.888888888889 18.536111111111 1138.888888888889 41.8249999999999V859.3158333333333C1138.888888888889 882.6047222222222 1120.0916666666667 901.1408333333334 1096.4750000000001 901.1408333333334H968.2722222222222zM1090.6916666666666 47.5277777777777H48.1966666666667V632.6055555555556H1090.6916666666666V47.5277777777777zM254.9736111111112 967.6805555555557V808.9352777777777C254.9736111111112 790.8744444444444 240.5144444444444 776.6161111111111 222.1997222222222 776.6161111111111C203.885 776.6161111111111 189.4261111111112 790.8744444444444 189.4261111111112 808.9352777777777V967.6805555555557C189.4261111111112 985.2661666666665 204.3669444444445 1000 222.1997222222222 1000C240.0325000000001 1000 254.9736111111112 985.2661666666665 254.9736111111112 967.6805555555557zM949.5000000000002 967.6805555555557V808.9352777777777C949.5000000000002 790.8744444444444 934.5583333333334 776.6161111111111 916.725 776.6161111111111C898.8916666666668 776.6161111111111 883.9527777777778 790.8744444444444 883.9527777777778 808.9352777777777V967.6805555555557C883.9527777777778 985.2661666666665 898.411111111111 1000 916.725 1000C935.0416666666666 1000 949.5000000000002 985.2661666666665 949.5000000000002 967.6805555555557z" />
  </font>
</defs>
</svg>
